Фильмы 720

Призраки войны / Ghosts of War [2020, Ужасы, триллер, военный, WEB-DL 720p | HDRezka Studio]
Торрент трекер Riperam.org
Ссылка http://riperam.org/bdrip-hdrip/
Ссылка на rrs ленту-источник http://riperam.org/feed.php?f=51&mode=torrents
Фильтр720
Сгенерированная rss лента http://ru.rss-torrent.ru/upload/rss/237.xml
Добавил пользовательdivinets
Последние файлы
НазваниеЗакачкаДата
Призраки войны / Ghosts of War [2020, Ужасы, триллер, военный, WEB-DL 720p | HDRezka Studio]2 ГбСкачать торрент21.07.2020 13:02:45
Контрольный список / Watch List [2019, Триллер, драма, криминал, WEB-DL 720p | datynet]2 ГбСкачать торрент16.07.2020 19:08:32
Палм-Спрингс / Palm Springs [2020, Фантастика, комедия, WEB-DL 720p | MUZOBOZ]2 ГбСкачать торрент14.07.2020 14:47:23
Гибрид / Crossbreed [2019, Фантастика, боевик, триллер, WEB-DL 720p | HDRezka Studio]2 ГбСкачать торрент13.07.2020 10:18:20
Воля / Желание / Volition [2019, Фантастика, триллер, WEB-DL 720p | @[email protected]]2 ГбСкачать торрент11.07.2020 20:35:36
Честный кандидат / Irresistible [2020, Драма, комедия, WEB-DL 720p | HDRezka Studio]2 ГбСкачать торрент08.07.2020 12:05:10
Кровь машин / Кровавые машины / Blood Machines [2019, Короткометражка, фантастика, WEB-DL 720p | iTunes]1.2 ГбСкачать торрент04.07.2020 21:05:47
Нямка / Вкусняшка / Вкуснятина / Yummy [2019, Ужасы, боевик, триллер, комедия, WEB-DL 720p | Хихидок]2 ГбСкачать торрент01.07.2020 09:39:41
Дикая Роза / Wild Rose [2018, Драма, музыка, BDRip 720p | iTunes]2 ГбСкачать торрент20.06.2020 22:04:56
Мисс Фрайни Фишер и гробница слёз / Miss Fisher and the Crypt of Tears [2020, Детектив, приключения, WEB-DL 720p | ViruseProject]2 ГбСкачать торрент19.06.2020 12:12:29
Бекки / Becky [2020, Боевик, триллер, драма, WEB-DL 720p | Хихикающий доктор]2 ГбСкачать торрент14.06.2020 07:07:15
Тот, кто сидит внутри / Мужик внутри меня / Nae aneui geunom / The Dude In Me /2019/ WEB-DL 720p | GREEN TEA]2 ГбСкачать торрент13.06.2020 16:05:10
Как живой / Life Like [2019, Фантастика, триллер, WEB-DL 720p | Синема УС]2 ГбСкачать торрент09.06.2020 18:21:24
Вспышка / Flashout [2019, Фантастика, WEB-DL 720p | HDRezka Studio]2 ГбСкачать торрент30.05.2020 19:39:25
Первая ведьма / The Wretched [2019, Ужсы, WEBRip 720p | LakeFilms]2 ГбСкачать торрент02.05.2020 07:47:10
Грипп / Вирус / The flu / Gamgi [2013, драма, BDRip 720p | iTunes]2 ГбСкачать торрент30.04.2020 12:55:56
Небесный огонь / Skyfire [2019. Боевик, WEB-DL 720p | den904 & DeadSno]2 ГбСкачать торрент27.04.2020 07:51:21
Дверь в лесу / Door in the Woods [2019, Tриллер, WEB-DL 720p | Чистый звук]2 ГбСкачать торрент24.04.2020 20:27:28
Короназомби / Corona Zombies [2020, Ужасы, комедия, WEBRip 720p | Psychotronic]1.9 ГбСкачать торрент19.04.2020 09:56:48
Она никогда не умирала / She Never Died [2019, Фэнтези, боевик, комедия, WEBRip 720p | LakeFilms]2 ГбСкачать торрент16.04.2020 15:33:59
Женщина в огне / American Woman [2018, Драма, детектив, BDRip 720p | Онлайн кинотеатр]2 ГбСкачать торрент20.01.2020 00:05:29
Лондонские поля / London Fields [2018, триллер, криминал, детектив, BDRip (720p) | iTunes]2 ГбСкачать торрент13.03.2019 18:36:00
История рыцаря / A Knight's Tale (2001) BDRip 720p от k.e.n & MegaPeer | D, P, A2 ГбСкачать торрент06.03.2019 17:37:54
Золото / Gold [2018, Драма, биография, спорт, история, WEBRip (720p) | FanStudio]1.67 ГбСкачать торрент21.12.2018 16:35:08
Тайный Санта / Secret Santa [2018, ужасы, WEB-DLRip 720p | "Синема УС"]2 ГбСкачать торрент08.12.2018 17:13:47
Лондонские поля / London Fields [2018, триллер, криминал, детектив, WEB-DL (720p) | iTunes]2 ГбСкачать торрент01.11.2018 09:11:25
Сага о чудовище. Сумерки / Wildling [2018, Ужасы, фэнтези, триллер, драма, WEB-DLRip 720p | Звук с TS]1.37 ГбСкачать торрент24.06.2018 10:24:59
1987 / 1987 [2017, драма, биография, история, WEB-DLRip 720p | КОЛОБОК]2 ГбСкачать торрент14.06.2018 01:09:37
Не могу остановиться, не хочу остановиться: История плохого парня / Can't Stop, Won't Stop: A Bad Boy Story [2017, документальный, WEB-DLRip 720p | Синема УС]2 ГбСкачать торрент14.06.2018 01:01:07
Конченая / Terminal [2018, Триллер, драма, криминал, WEB-DL 720p | iTunes]2 ГбСкачать торрент13.06.2018 23:44:46
Ночные игры / Game Night [2018, Триллер, комедия, криминал, детектив, BDRip (720p) | Лицензия]2 ГбСкачать торрент13.06.2018 23:28:38
Незнакомцы: Жестокие игры / The Strangers: Prey at Night [2018, Ужасы, BDRip 720p | iTunes]2 ГбСкачать торрент13.06.2018 21:04:16
Жизнь (1 сезон: 1-6 серии из 6) / Vida [2018, Драма, WEB-DLRip 720p, Профессиональный (многоголосый закадровый) | Jaskier]968 MбСкачать торрент13.06.2018 19:54:45
Гавайи 5-0 (Полиция Гавайев) (8 сезон: 1-25 серии из 25) / Hawaii Five-0 [2017, Боевик, Драма, Криминал, WEB-DL (720p), Профессиональный (многоголосый, закадровый) - LostFilm]1.57 ГбСкачать торрент13.06.2018 19:53:16
Гавайи 5-0 (Полиция Гавайев) (8 сезон: 1-25 серии из 25) / Hawaii Five-0 [2017, Боевик, Драма, Криминал, WEB-DL (720p), Профессиональный (многоголосый, закадровый) - SunshineStudio]1.5 ГбСкачать торрент13.06.2018 19:51:50
Лед / Ice [2 сезон: 1-9 серия из 10] [2018, Драма, криминал, HDTVRip 720р, Профессиональный (многоголосый, закадровый) | OMSKBIRD]982 MбСкачать торрент13.06.2018 19:48:51
Учебный лагерь для невест / Bridal Boot Camp [2017, мелодрама, комедия, HDTVRip 720p | Синема УС]2 ГбСкачать торрент11.06.2018 21:41:34
Информация о фильме
Название: Призраки войны
Оригинальное название: Ghosts of War
Год выхода: 2020
Жанр: Ужасы, триллер, военный
Режиссер: Эрик Бресс

В ролях: Брентон Туэйтс, Тео Росси, Кайл Галлнер, Скайлар Эстин, Алан Ричсон, Билли Зейн, Шон Тоуб, Мэттью Риз, Лайла Банки, Нэйтан Купер

Слоган: «Врага здесь нет. Но здесь есть ЭТО… »

О фильме: Последние месяцы Второй мировой войны. Французская провинция. Пятеро опытных американских солдат получают приказ охранять замок, в котором еще недавно располагалось нацистское верховное командование. Эта неожиданная передышка перерастает в безумие, когда они сталкиваются со сверхъестественными силами, гораздо более страшными, чем то, что творилось на поле боя.



Выпущено: Великобритания / Miscellaneous Entertainment
Продолжительность: 01:35:02
Перевод: Профессиональный (многоголосый закадровый) [HDrezka Studio]

Файл
Качество: WEB-DL 720p
Формат: MKV
Видео: MPEG-4 AVC/H.264, 3100 Кбит/сек, 1280x530
Аудио #1: Русский: AC3, 6 ch, 448 Кбит/сек
Аудио #2: Английский: AC3, 6 ch, 448 Кбит/сек
Субтитры: pусские (Forced), украинские (Forced), английские (Full, SDH)
Дополнительно: Сохранены оригинальные главы (чаптеры)

Общее
Уникальный идентификатор : 217755973986684488946638331220357271781 (0xA3D2466C1A4AD5DCD7113FD0D2F7D0E5)
Полное имя : F:\РЕЛИЗЫ ФИЛЬМОВ\01. ФИЛЬМЫ\Призраки войны Ghosts of War (2020)\Ghosts of War (2020) WEB-DL 720p.mkv
Формат : Matroska
Версия формата : Version 4
Размер файла : 2,62 Гбайт
Продолжительность : 1 ч. 35 м.
Общий поток : 3 953 Кбит/сек
Дата кодирования : UTC 2020-07-21 07:58:00
Программа кодирования : mkvmerge v48.0.0 ('Fortress Around Your Heart') 64-bit
Библиотека кодирования : libebml v1.4.0 + libmatroska v1.6.0
Attachments : poster.jpg
Язык : und

Видео
Идентификатор : 1
Формат : AVC
Формат/Информация : Advanced Video Codec
Профиль формата : [email protected]
Настройки формата : CABAC / 11 Ref Frames
Параметр CABAC формата : Да
Параметр RefFrames формата : 11 кадров
Идентификатор кодека : V_MPEG4/ISO/AVC
Продолжительность : 1 ч. 35 м.
Битрейт : 3 100 Кбит/сек
Ширина : 1 280 пикселей
Высота : 530 пикселей
Соотношение сторон : 2,40:1
Режим частоты кадров : Постоянный
Частота кадров : 23,976 (24000/1001) кадра/сек
Цветовое пространство : YUV
Субдискретизация насыщенности : 4:2:0
Битовая глубина : 8 бит
Тип развёртки : Прогрессивная
Бит/(Пиксели*Кадры) : 0.191
Размер потока : 2,03 Гбайт (77%)
Заголовок : Great Britain (Miscellaneous Entertainment)
Библиотека кодирования : x264 core 157 r2958 57baac4
Настройки программы : cabac=1 / ref=11 / deblock=1:-3:-3 / analyse=0x3:0x133 / me=umh / subme=11 / psy=1 / psy_rd=1.05:0.10 / mixed_ref=1 / me_range=32 / chroma_me=1 / trellis=2 / 8x8dct=1 / cqm=0 / deadzone=21,11 / fast_pskip=0 / chroma_qp_offset=-3 / threads=13 / lookahead_threads=1 / sliced_threads=0 / nr=0 / decimate=1 / interlaced=0 / bluray_compat=0 / constrained_intra=0 / bframes=11 / b_pyramid=2 / b_adapt=1 / b_bias=10 / direct=1 / weightb=1 / open_gop=0 / weightp=1 / keyint=240 / keyint_min=24 / scenecut=40 / intra_refresh=0 / rc_lookahead=60 / rc=abr / mbtree=1 / bitrate=3100 / ratetol=1.0 / qcomp=0.70 / qpmin=3 / qpmax=69 / qpstep=4 / ip_ratio=1.40 / aq=2:1.00
Язык : Russian
Default : Да
Forced : Нет
Цветовой диапазон : Limited
Основные цвета : BT.709
Характеристики трансфера : BT.709
Коэффициенты матрицы : BT.709

Аудио #1
Идентификатор : 2
Формат : AC-3
Формат/Информация : Audio Coding 3
Коммерческое название : Dolby Digital
Идентификатор кодека : A_AC3
Продолжительность : 1 ч. 35 м.
Вид битрейта : Постоянный
Битрейт : 448 Кбит/сек
Каналы : 6 каналов
Channel layout : L R C LFE Ls Rs
Частота : 48,0 КГц
Частота кадров : 31,250 кадров/сек (1536 SPF)
Метод сжатия : С потерями
Размер потока : 305 Мбайт (11%)
Заголовок : MVO (HDRezka Studio)
Язык : Russian
Service kind : Complete Main
Default : Да
Forced : Нет

Аудио #2
Идентификатор : 3
Формат : AC-3
Формат/Информация : Audio Coding 3
Коммерческое название : Dolby Digital
Идентификатор кодека : A_AC3
Продолжительность : 1 ч. 35 м.
Вид битрейта : Постоянный
Битрейт : 448 Кбит/сек
Каналы : 6 каналов
Channel layout : L R C LFE Ls Rs
Частота : 48,0 КГц
Частота кадров : 31,250 кадров/сек (1536 SPF)
Метод сжатия : С потерями
Размер потока : 305 Мбайт (11%)
Заголовок : Original (English)
Язык : English
Service kind : Complete Main
Default : Нет
Forced : Нет

Текст #1
Идентификатор : 4
Формат : UTF-8
Идентификатор кодека : S_TEXT/UTF8
Идентификатор кодека/Информация : UTF-8 Plain Text
Продолжительность : 1 ч. 26 м.
Битрейт : 5 бит/сек
Count of elements : 83
Размер потока : 3,72 Кбайт (0%)
Заголовок : (Forced)
Язык : Russian
Default : Да
Forced : Нет

Текст #2
Идентификатор : 5
Формат : UTF-8
Идентификатор кодека : S_TEXT/UTF8
Идентификатор кодека/Информация : UTF-8 Plain Text
Продолжительность : 1 ч. 26 м.
Битрейт : 5 бит/сек
Count of elements : 83
Размер потока : 3,39 Кбайт (0%)
Заголовок : (Forced)
Язык : Ukrainian
Default : Нет
Forced : Нет

Текст #3
Идентификатор : 6
Формат : UTF-8
Идентификатор кодека : S_TEXT/UTF8
Идентификатор кодека/Информация : UTF-8 Plain Text
Продолжительность : 1 ч. 26 м.
Битрейт : 36 бит/сек
Count of elements : 796
Размер потока : 23,2 Кбайт (0%)
Заголовок : (Forced)
Язык : English
Default : Нет
Forced : Нет

Текст #4
Идентификатор : 7
Формат : UTF-8
Идентификатор кодека : S_TEXT/UTF8
Идентификатор кодека/Информация : UTF-8 Plain Text
Продолжительность : 1 ч. 27 м.
Битрейт : 44 бит/сек
Count of elements : 1073
Размер потока : 28,6 Кбайт (0%)
Заголовок : SDH
Язык : English
Default : Нет
Forced : Нет

Меню
00:00:00.000 : :Глава 1
00:13:36.816 : :Глава 2
00:27:03.622 : :Глава 3
00:40:06.404 : :Глава 4
00:53:33.210 : :Глава 5
01:07:24.040 : :Глава 6
01:20:38.834 : :Глава 7



Статистика: Добавлено vamo - 2020-07-21 12:02:45+03:00 - Ответы 0 - Просмотры 11